<?xml version="1.0" standalone="no"?>
<!DOCTYPE svg PUBLIC "-//W3C//DTD SVG 1.1//EN" "http://www.w3.org/Graphics/SVG/1.1/DTD/svg11.dtd" >
<svg xmlns="http://www.w3.org/2000/svg">
<metadata>Generated by IcoMoon</metadata>
<defs>
<font id="icon-fluid" horiz-adv-x="1024">
<font-face units-per-em="1024" ascent="960" descent="-64" />
<missing-glyph horiz-adv-x="1024" />
<glyph unicode="&#x20;" horiz-adv-x="512" d="" />
<glyph unicode="&#xe900;" glyph-name="arrow_next" d="M193.939 52.364l387.879 395.636-387.879 395.636 124.121 116.364 512-512-512-512-124.121 116.364z" />
<glyph unicode="&#xe901;" glyph-name="arrow_prev" d="M830.061 835.879l-387.879-395.636 387.879-395.636-124.121-124.121-512 527.515 512 512 124.121-124.121z" />
<glyph unicode="&#xe902;" glyph-name="cart-icon" horiz-adv-x="1177" d="M1177.121 500.636h-1081.421l119.626-521.57h751.252l110.056 502.43 43.065-9.57v-4.785l-114.841-531.14h-823.028v4.785l-129.196 559.85h-52.636v205.757h272.748l200.972 253.607 33.495-28.71-4.785-4.785-244.037-311.028c0-4.785 0-4.785 0-9.57 0-19.14-14.355-38.28-38.28-38.28-19.14 0-38.28 14.355-38.28 38.28 0 19.14 14.355 38.28 38.28 38.28 0 0 0 0 0 0l19.14 19.14h-191.402v-114.841h1086.206v114.841h-148.336v43.065h191.402v-205.757zM373.234 706.393v-43.065h507.215l38.28-47.85c0-4.785 0-4.785 0-9.57 0-19.14 14.355-38.28 38.28-38.28 19.14 0 38.28 14.355 38.28 38.28 0 19.14-14.355 38.28-38.28 38.28 0 0 0 0 0 0l-248.822 315.813h-4.785l-33.495-28.71 177.047-224.897h-473.72zM244.037 419.29l38.28-368.449 43.065 4.785-38.28 363.664v4.785l-43.065-4.785zM430.654 50.841l43.065 4.785-28.71 368.449-43.065-4.785 28.71-368.449zM612.486 55.626v368.449h-43.065v-368.449h43.065zM894.804 50.841l38.28 368.449-43.065 4.785-38.28-368.449 43.065-4.785zM703.402 55.626l43.065-4.785 28.71 363.664v4.785l-43.065 4.785-28.71-368.449z" />
<glyph unicode="&#xe903;" glyph-name="facebook" d="M266.24 618.667h109.227v102.4c-6.827 54.613 0 116.053 27.307 163.84 40.96 47.787 102.4 81.92 170.667 75.093 61.44 0 129.707-6.827 191.147-20.48l-27.307-157.013c-27.307 6.827-54.613 13.653-88.747 13.653-40.96 0-75.093-13.653-75.093-54.613v-122.88h170.667l-13.653-150.187h-157.013v-532.48h-204.8v532.48h-102.4v150.187z" />
<glyph unicode="&#xe904;" glyph-name="instagram" d="M0 286.142v343.535c0 39.639 6.606 79.277 13.213 118.916 19.819 85.884 79.277 151.948 158.555 184.981 46.245 19.819 92.49 26.426 145.342 26.426 13.213 0 19.819 0 33.032 0h343.535c39.639 0 79.277-6.606 118.916-13.213 85.884-19.819 151.948-79.277 184.981-158.555 19.819-46.245 26.426-92.49 26.426-145.342 0-13.213 0-19.819 0-33.032v-343.535c0-39.639-6.606-79.277-13.213-118.916-19.819-85.884-79.277-151.948-158.555-184.981-46.245-19.819-92.49-26.426-145.342-26.426-13.213 0-19.819 0-33.032 0h-343.535c-39.639 0-79.277 6.606-118.916 13.213-85.884 19.819-151.948 79.277-184.981 158.555-19.819 46.245-26.426 92.49-26.426 145.342 0 13.213 0 26.426 0 33.032zM938.116 457.91v0c0 46.245 0 85.884 0 132.129 0 39.639 0 79.277-6.606 118.916 0 39.639-19.819 72.671-46.245 105.703-33.032 39.639-85.884 59.458-138.735 59.458-59.458 6.606-118.916 6.606-184.981 6.606s-118.916 0-178.374 0c-39.639 0-79.277 0-118.916-6.606-39.639 0-72.671-19.819-105.703-46.245-39.639-33.032-59.458-85.884-59.458-138.735-6.606-59.458-6.606-118.916-6.606-184.981s0-118.916 0-178.374c0-39.639 0-79.277 6.606-118.916 0-39.639 19.819-72.671 46.245-105.703 33.032-39.639 85.884-59.458 138.735-66.065 59.458-6.606 118.916-6.606 184.981-6.606s118.916 0 178.374 0c46.245 0 92.49 0 132.129 6.606 72.671 6.606 132.129 59.458 145.342 132.129 6.606 26.426 13.213 46.245 13.213 72.671 0 79.277 0 145.342 0 218.013zM779.561 457.91c0-145.342-118.916-264.258-264.258-264.258s-264.258 118.916-264.258 264.258 118.916 264.258 264.258 264.258v0c145.342 0 264.258-118.916 264.258-264.258zM515.303 286.142c92.49 0 171.768 79.277 171.768 171.768s-79.277 171.768-171.768 171.768-171.768-79.277-171.768-171.768c0-92.49 79.277-171.768 171.768-171.768zM792.774 794.839c33.032 0 59.458-26.426 59.458-59.458s-26.426-59.458-59.458-59.458v0c-33.032 0-59.458 26.426-59.458 59.458-6.606 33.032 19.819 59.458 59.458 59.458z" />
<glyph unicode="&#xe905;" glyph-name="my-account-icon" d="M822.857 352c-36.571 36.571-91.429 59.429-146.286 59.429 0 0 0 0 0 0h-45.714l-22.857 100.571c13.714 13.714 27.429 32 36.571 54.857l4.571 9.143v4.571c13.714 27.429 22.857 54.857 27.429 86.857s9.143 68.571 9.143 105.143v22.857c0 32-13.714 64-32 91.429-22.857 27.429-50.286 50.286-86.857 68.571-50.286 18.286-105.143 13.714-150.857-9.143-27.429-13.714-45.714-32-64-54.857-13.714-41.143-22.857-77.714-22.857-118.857 4.571-41.143 9.143-82.286 22.857-123.429v0l4.571-18.286c0-13.714 9.143-32 13.714-50.286v-4.571c13.714-18.286 22.857-36.571 41.143-54.857l-18.286-109.714h-45.714c-114.286 0-205.714-91.429-205.714-205.714v-274.286h736v274.286c4.571 54.857-18.286 105.143-54.857 146.286zM557.714 909.714c27.429-9.143 50.286-32 68.571-54.857 13.714-18.286 22.857-45.714 22.857-68.571v0-4.571c4.571-59.429-9.143-123.429-32-178.286l-9.143-18.286c-9.143-22.857-27.429-41.143-45.714-54.857-13.714-13.714-32-18.286-50.286-18.286-27.429 0-50.286 13.714-68.571 36.571-9.143 9.143-13.714 18.286-22.857 32v0l-9.143 18.286c-13.714 27.429-22.857 59.429-27.429 86.857-9.143 27.429-13.714 59.429-13.714 91.429s9.143 59.429 27.429 82.286v0c13.714 18.286 27.429 32 45.714 41.143 36.571 18.286 77.714 22.857 114.286 9.143zM448 489.143c18.286-13.714 41.143-18.286 64-18.286 18.286 0 41.143 9.143 59.429 18.286l18.286-73.143h-155.429l13.714 73.143zM187.429-22.857v228.571c0 86.857 73.143 160 160 160h329.143c86.857 0 160-73.143 160-160v-228.571h-649.143z" />
<glyph unicode="&#xe906;" glyph-name="authenticity" d="M889.143 292.571h32v-29.714c0-34.286-27.429-59.429-59.429-59.429h-123.429v32h123.429c16 0 27.429 11.429 27.429 27.429v29.714zM834.286-4.571c0-16-11.429-27.429-27.429-27.429h-281.143c-6.857 0-11.429 0-18.286 2.286l-221.714 48v498.286h-212.571v-32h180.571v-502.857h-146.286v441.143h-34.286v-475.429h212.571v36.571l214.857-48c9.143-2.286 16-2.286 25.143-2.286h281.143c34.286 0 59.429 27.429 59.429 59.429v29.714h-32v-27.429zM891.429 502.857h-242.286l25.143 112c4.571 20.571 4.571 41.143 2.286 64l-18.286 112c-4.571 25.143-27.429 45.714-52.571 45.714h-36.571c-27.429 0-50.286-20.571-52.571-48l-13.714-109.714-32-80c-9.143-25.143-27.429-45.714-50.286-57.143l-70.857-38.857 16-27.429 70.857 38.857c29.714 16 52.571 43.429 64 73.143l34.286 84.571 13.714 114.286c2.286 11.429 11.429 18.286 20.571 18.286h38.857c11.429 0 18.286-6.857 20.571-18.286l18.286-112c2.286-16 2.286-34.286-2.286-50.286l-34.286-153.143h281.143c16 0 27.429-11.429 27.429-27.429v-45.714c0-16-11.429-27.429-27.429-27.429h-134.857v-32h134.857c34.286 0 59.429 27.429 59.429 59.429v45.714c0 32-27.429 59.429-59.429 59.429zM857.143 128c0-16-11.429-27.429-27.429-27.429h-107.429v-32h107.429c34.286 0 59.429 27.429 59.429 59.429v32h-32v-32zM164.571 100.571v-54.857h32v54.857h-32zM594.286 960h-32v-59.429h32v59.429zM717.714 738.286h59.429v34.286h-59.429v-34.286zM450.286 772.571h-59.429v-32h59.429v32zM486.857 857.143l-38.857 45.714-25.143-20.571 38.857-45.714 25.143 20.571zM731.429 882.286l-25.143 20.571-38.857-45.714 25.143-20.571 38.857 45.714z" />
<glyph unicode="&#xe907;" glyph-name="twitter" d="M1024 762.027c-40.96-13.653-81.92-27.307-122.88-34.133 40.96 27.307 75.093 68.267 95.573 116.053-40.96-27.307-88.747-40.96-136.533-47.787-81.92 81.92-211.627 88.747-300.373 6.827-54.613-54.613-75.093-129.707-61.44-197.973-170.667 6.827-327.68 88.747-436.907 218.453-54.613-95.573-27.307-218.453 68.267-279.893-34.133 0-68.267 6.827-95.573 27.307v0c0-102.4 68.267-184.32 170.667-204.8-20.48-6.827-34.133-6.827-54.613-6.827-13.653 0-27.307 0-40.96 6.827 27.307-88.747 109.227-143.36 197.973-143.36-75.093-61.44-163.84-88.747-259.413-88.747-13.653 0-34.133 0-47.787 0 279.893-177.493 648.533-95.573 826.027 184.32 61.44 95.573 95.573 211.627 95.573 320.853 0 6.827 0 20.48 0 27.307 34.133 20.48 68.267 54.613 102.4 95.573z" />
<glyph unicode="&#xe908;" glyph-name="youtube" d="M705.272 451.391l-332.291-196.662v393.325l332.291-196.662zM1017.219 268.291v359.417c0 94.94-74.596 176.318-169.536 176.318h-671.364c-94.94 6.781-176.318-74.596-176.318-169.536v-372.98c0-94.94 74.596-176.318 169.536-176.318h678.146c94.94 0 176.318 74.596 176.318 169.536-6.781 6.781-6.781 13.563-6.781 13.563z" />
<glyph unicode="&#xe909;" glyph-name="search-icon" horiz-adv-x="1038" d="M1037.533-27.912l-198.485 198.485c76.687 85.709 117.286 193.974 117.286 311.26 0 126.308-49.621 248.106-139.841 338.326s-212.018 139.841-338.326 139.841c0 0 0 0 0 0-63.154 0-126.308-13.533-184.952-36.088-58.643-27.066-108.264-58.643-153.374-103.753-184.952-184.952-184.952-491.7 0-676.652 94.731-94.731 216.529-139.841 338.326-139.841 117.286 0 234.573 40.599 324.793 126.308l193.974-193.974 40.599 36.088zM775.894 184.106c-76.687-81.198-184.952-126.308-297.727-126.308 0 0 0 0 0 0v0c0 0 0 0 0 0-58.643 0-112.775 9.022-162.396 31.577s-94.731 49.621-135.33 90.22c-166.907 166.907-166.907 437.568 0 599.965 81.198 81.198 184.952 121.797 297.727 121.797 0 0 0 0 0 0 112.775 0 221.040-45.11 297.727-121.797 81.198-76.687 126.308-184.952 126.308-297.727s-45.11-221.040-126.308-297.727z" />
<glyph unicode="&#xe90a;" glyph-name="credit_card" d="M708.169 194.943c0 23.54 19.617 43.157 43.157 43.157s43.157-19.617 43.157-43.157c0-17.655-11.77-33.349-27.464-39.234v-19.617h-27.464v19.617c-19.617 3.923-31.387 19.617-31.387 39.234zM676.782 291.065h209.9v-217.747h-274.636v217.747h37.272v37.272c0 43.157 35.31 78.467 78.467 78.467h43.157c37.272 0 68.659-25.502 76.506-62.774l1.962-13.732-25.502-3.923-1.962 13.732c-3.923 23.54-25.502 41.195-49.042 41.195h-43.157c-27.464 0-51.004-23.54-51.004-51.004v-39.234zM676.782 263.602h-35.31v-160.858h217.747v160.858h-182.437zM1024 773.64v-547.31c0-27.464-21.579-49.042-49.042-49.042h-43.157v27.464h43.157c11.77 0 19.617 9.808 19.617 19.617v441.379h-967.111v-103.969h910.222v-27.464h-910.222v-307.985c0-11.77 9.808-19.617 19.617-19.617h521.808v-27.464h-519.847c-27.464 0-49.042 21.579-49.042 49.042v545.349c0 27.464 21.579 49.042 49.042 49.042h925.916c25.502 0 49.042-21.579 49.042-49.042zM994.575 693.211v80.429c0 11.77-9.808 19.617-19.617 19.617h-925.916c-11.77 0-19.617-9.808-19.617-19.617v-80.429h965.149zM151.050 387.188c33.349 0 62.774-27.464 62.774-62.774s-27.464-62.774-62.774-62.774-62.774 27.464-62.774 62.774c1.962 35.31 29.425 62.774 62.774 62.774zM151.050 359.724c-19.617 0-33.349-15.693-33.349-33.349 0 0 0 0 0 0 0-19.617 15.693-33.349 33.349-33.349v0c19.617 0 33.349 15.693 33.349 33.349 1.962 17.655-13.732 33.349-33.349 33.349zM337.41 263.602v27.464h-80.429v-27.464h80.429zM480.613 387.188h-223.632v-27.464h223.632v27.464zM529.655 291.065h-149.088v-27.464h149.088v27.464z" />
<glyph unicode="&#xe90b;" glyph-name="customer_service" d="M865.064 194.838c0 106.714-86.279 192.993-192.993 192.993h-45.41l-13.623 63.574-31.787-6.812 11.353-56.763h-38.599c0 0 0 0 0 0h-79.468c0 0 0 0-2.271 0h-40.869l13.623 86.279c20.435-13.623 43.14-22.705 65.845-22.705 47.681 0 93.091 34.058 122.608 90.82h27.246c18.164 0 36.328 13.623 40.869 31.787l4.541 22.705c11.353 6.812 20.435 18.164 22.705 31.787l9.082 43.14c0 0 0 0 0 0 2.271 13.623-2.271 27.246-9.082 38.599l4.541 45.41c4.541 49.951-13.623 99.902-49.951 136.231-20.435 20.435-43.14 38.599-68.115 49.951-29.517 11.353-56.763 18.164-86.279 18.164h-36.328c-61.304 0-118.067-27.246-156.665-72.656-34.058-38.599-52.222-88.55-45.41-140.772l4.541-43.14c-6.812-9.082-9.082-20.435-6.812-34.058l9.082-43.14c4.541-22.705 22.705-38.599 45.41-38.599 2.271 0 6.812 0 9.082 0l18.164 2.271c11.353-34.058 27.246-65.845 49.951-93.091h-2.271l-18.164-113.525h-45.41c-108.984 4.541-195.264-81.738-195.264-188.452v-258.838h703.858l2.271 258.838zM694.776 694.35c0 0 0 0 0 0 6.812-2.271 11.353-9.082 11.353-15.894l-9.082-43.14c-2.271-6.812-6.812-11.353-13.623-11.353 0 0-2.271 0-2.271 0l-15.894 2.271 13.623 70.386 15.894-2.271zM358.741 866.909c34.058 38.599 81.738 61.304 131.69 61.304h36.328c49.951 0 95.361-20.435 129.419-56.763 29.517-29.517 43.14-70.386 40.869-111.255l-2.271-31.787-43.14 9.082-24.976-133.96 45.41-9.082-2.271-9.082c0-4.541-4.541-6.812-9.082-6.812h-104.443v-31.787h40.869c-9.082-13.623-20.435-27.246-34.058-38.599s-31.787-18.164-52.222-20.435c-27.246 2.271-52.222 13.623-68.115 36.328-22.705 27.246-40.869 59.033-47.681 95.361l-4.541 13.623-13.623 70.386c18.164-4.541 38.599-6.812 56.763-6.812 40.869 0 81.738 11.353 115.796 31.787 18.164 9.082 29.517 15.894 38.599 13.623l27.246-11.353 11.353 29.517-27.246 11.353c-22.705 4.541-45.41-2.271-63.574-15.894-20.435-11.353-43.14-20.435-65.845-24.976-31.787-6.812-65.845-4.541-97.632 4.541-2.271 13.623-2.271 29.517 0 43.14 4.541 36.328 27.246 65.845 59.033 79.468 20.435 11.353 43.14 15.894 68.115 20.435 18.164 2.271 38.599 0 56.763-4.541 29.517-6.812 54.492-22.705 72.656-45.41 13.623-15.894 20.435-36.328 22.705-56.763v-15.894h31.787v15.894c-2.271 27.246-13.623 52.222-31.787 74.927-22.705 27.246-54.492 47.681-90.82 56.763-22.705 6.812-45.41 6.812-68.115 4.541-27.246-2.271-54.492-11.353-77.197-22.705-43.14-18.164-72.656-59.033-77.197-104.443-2.271-18.164-2.271-36.328 0-52.222l-15.894-2.271c0 0 0 0 0 0l-2.271 27.246c-4.541 40.869 9.082 81.738 38.599 113.525zM342.847 623.965c0 0-2.271 0-2.271 0-6.812 0-11.353 4.541-13.623 11.353l-9.082 43.14c0 0 0 0 0 0-2.271 6.812 4.541 13.623 11.353 15.894l15.894 2.271 13.623-70.386-15.894-2.271zM494.971 292.47h31.787l22.705-120.337c-2.271-2.271-4.541-2.271-4.541-4.541-22.705-15.894-52.222-13.623-72.656 4.541l22.705 120.337zM524.488 324.257h-27.246l-6.812 31.787h40.869l-6.812-31.787zM458.643 356.044l9.082-45.41-20.435-104.443-104.443 147.583c4.541 0 6.812 0 11.353 0h104.443zM831.007-29.942h-640.284v227.051c0 72.656 47.681 133.96 113.525 154.395l131.69-186.182c9.082-11.353 20.435-22.705 34.058-29.517s27.246-9.082 40.869-9.082c13.623 0 27.246 2.271 40.869 9.082s24.976 15.894 34.058 29.517l108.984 154.395-27.246 18.164-90.82-129.419-20.435 108.984 9.082 38.599h106.714c88.55 0 161.206-72.656 161.206-161.206v-224.78zM647.095 88.124h147.583v90.82h-147.583v-90.82zM678.882 147.157h84.009v-27.246h-84.009v27.246z" />
<glyph unicode="&#xe90c;" glyph-name="delivery" horiz-adv-x="1407" d="M1366.016 421.376l-77.824 51.2-32.768 145.408c-6.144 32.768-36.864 55.296-69.632 55.296h-145.408v163.84h-792.576v-665.6h176.128c8.192-63.488 61.44-112.64 126.976-112.64 69.632 0 126.976 57.344 126.976 126.976s-57.344 126.976-126.976 126.976c-34.816 0-65.536-14.336-90.112-36.864-20.48-20.48-32.768-47.104-36.864-75.776h-147.456v231.424h675.84v28.672h-675.84v348.16h733.184v-163.84h176.128c20.48 0 36.864-14.336 40.96-32.768l34.816-157.696 88.064-57.344c16.384-10.24 28.672-30.72 28.672-51.2v-34.816h-32.768v-28.672h32.768v-81.92h-69.632v-28.672h98.304v174.080c0 30.72-16.384 59.392-40.96 75.776zM452.608 183.808c0 53.248 43.008 98.304 98.304 98.304s98.304-43.008 98.304-98.304c0-53.248-43.008-98.304-98.304-98.304v0c-53.248 0-98.304 45.056-98.304 98.304v0zM1179.648 597.504h-167.936v-163.84h204.8l-36.864 163.84zM1040.384 462.336v106.496h116.736l22.528-106.496h-139.264zM1122.304 312.832c-34.816 0-65.536-14.336-90.112-36.864-24.576-24.576-36.864-57.344-36.864-90.112 0-69.632 57.344-126.976 126.976-126.976s126.976 57.344 126.976 126.976-57.344 126.976-126.976 126.976zM1122.304 85.504v0c-53.248 0-98.304 43.008-98.304 98.304v0c0 53.248 43.008 98.304 98.304 98.304 53.248 0 98.304-43.008 98.304-98.304s-45.056-98.304-98.304-98.304zM1161.216 183.808c0-22.528-18.432-40.96-40.96-40.96s-40.96 18.432-40.96 40.96 18.432 40.96 40.96 40.96c24.576 0 40.96-18.432 40.96-40.96zM512 183.808c0 22.528 18.432 40.96 40.96 40.96s40.96-18.432 40.96-40.96-18.432-40.96-40.96-40.96c-24.576 2.048-40.96 18.432-40.96 40.96zM665.6 562.688l40.96 49.152h-169.984v28.672h169.984l-40.96 49.152 22.528 18.432 69.632-83.968-69.632-83.968-22.528 22.528zM0 198.144h186.368v-28.672h-186.368v28.672zM51.2 310.784h135.168v-28.672h-135.168v28.672zM186.368 394.752h-81.92v28.672h81.92v-28.672z" />
<glyph unicode="&#xe90d;" glyph-name="warranty" d="M512 800c-32 0-64-6.857-93.714-18.286-89.143-36.571-146.286-125.714-146.286-221.714 0-132.571 107.429-240 240-240s240 107.429 240 240c0 132.571-107.429 240-240 240zM512 349.714c-54.857 0-107.429 22.857-148.571 61.714-38.857 38.857-61.714 91.429-61.714 148.571 0 114.286 93.714 208 208 208s208-93.714 208-208-91.429-210.286-205.714-210.286zM854.857 560c2.286 16 9.143 34.286 18.286 48 13.714 25.143 27.429 50.286 20.571 77.714-9.143 27.429-36.571 38.857-64 52.571-16 4.571-29.714 13.714-41.143 25.143-6.857 11.429-11.429 27.429-11.429 45.714-4.571 29.714-6.857 59.429-29.714 75.429-11.429 6.857-22.857 11.429-36.571 11.429s-29.714-2.286-43.429-6.857c-11.429-2.286-25.143-4.571-36.571-4.571-4.571 0-9.143 0-13.714 2.286-13.714 6.857-27.429 18.286-36.571 32-18.286 18.286-38.857 41.143-68.571 41.143s-50.286-22.857-68.571-43.429c-9.143-13.714-22.857-22.857-36.571-32-4.571-2.286-9.143-2.286-13.714-2.286-11.429 0-25.143 2.286-36.571 4.571-13.714 4.571-29.714 6.857-43.429 6.857s-25.143-2.286-36.571-11.429c-22.857-16-25.143-45.714-29.714-75.429 0-16-4.571-32-11.429-48-11.429-9.143-27.429-18.286-41.143-25.143-25.143-11.429-54.857-25.143-64-52.571-9.143-25.143 6.857-50.286 20.571-75.429 9.143-13.714 16-29.714 18.286-48-2.286-16-9.143-32-18.286-45.714-13.714-25.143-29.714-50.286-20.571-77.714s36.571-38.857 64-52.571c16-4.571 29.714-13.714 41.143-25.143 6.857-16 11.429-32 11.429-48 2.286-29.714 6.857-59.429 29.714-75.429 11.429-6.857 22.857-11.429 36.571-11.429s29.714 2.286 43.429 6.857c11.429 2.286 25.143 4.571 36.571 4.571 4.571 0 9.143 0 13.714-2.286 13.714-6.857 27.429-18.286 36.571-32 18.286-20.571 41.143-43.429 68.571-43.429s50.286 22.857 68.571 43.429c9.143 13.714 22.857 22.857 36.571 32 4.571 2.286 9.143 2.286 13.714 2.286 11.429 0 25.143-2.286 36.571-4.571 13.714-2.286 29.714-4.571 43.429-6.857 13.714 0 25.143 2.286 36.571 11.429 22.857 16 25.143 45.714 29.714 75.429 0 16 4.571 32 11.429 48 11.429 11.429 25.143 20.571 41.143 25.143 25.143 11.429 54.857 25.143 64 52.571 9.143 25.143-6.857 50.286-20.571 75.429-9.143 16-16 32-18.286 50.286zM861.714 445.714c-4.571-13.714-25.143-22.857-45.714-32-20.571-6.857-38.857-20.571-54.857-36.571-11.429-18.286-18.286-41.143-18.286-64-2.286-22.857-4.571-45.714-16-52.571-4.571-2.286-11.429-4.571-18.286-4.571-11.429 0-25.143 2.286-36.571 4.571-13.714 2.286-29.714 4.571-43.429 6.857-6.857 0-16 0-22.857-2.286-20.571-9.143-36.571-22.857-50.286-41.143-16-16-32-34.286-45.714-34.286s-29.714 18.286-45.714 34.286c-13.714 18.286-29.714 32-50.286 41.143-6.857 2.286-16 2.286-22.857 2.286v0c-13.714 0-29.714-2.286-43.429-6.857-11.429-2.286-25.143-4.571-36.571-4.571-6.857 0-11.429 0-18.286 4.571-11.429 6.857-13.714 29.714-16 52.571 0 22.857-6.857 43.429-18.286 64-16 16-34.286 29.714-54.857 36.571-20.571 9.143-41.143 18.286-45.714 32-4.571 11.429 6.857 32 18.286 50.286 13.714 18.286 20.571 41.143 22.857 64-2.286 22.857-11.429 43.429-22.857 64-11.429 18.286-20.571 38.857-18.286 50.286 4.571 13.714 25.143 22.857 45.714 32 20.571 6.857 38.857 20.571 54.857 36.571 11.429 18.286 18.286 41.143 18.286 64 2.286 22.857 4.571 45.714 16 52.571 4.571 2.286 11.429 4.571 18.286 4.571 11.429 0 25.143-2.286 36.571-4.571 13.714-2.286 29.714-4.571 43.429-4.571 6.857 0 16 0 22.857 2.286 20.571 9.143 36.571 22.857 50.286 41.143 16 16 32 34.286 45.714 34.286s29.714-18.286 45.714-34.286c13.714-18.286 29.714-32 50.286-41.143 6.857-2.286 16-2.286 22.857-2.286 13.714 0 29.714 2.286 43.429 6.857 11.429 2.286 25.143 4.571 36.571 4.571 6.857 0 11.429 0 18.286-4.571 11.429-6.857 13.714-29.714 16-52.571 0-22.857 6.857-43.429 18.286-64 16-16 34.286-29.714 54.857-36.571 20.571-9.143 41.143-18.286 45.714-32 4.571-11.429-6.857-32-18.286-50.286-13.714-18.286-20.571-41.143-22.857-64 2.286-22.857 11.429-43.429 22.857-64s22.857-41.143 18.286-52.571zM512 717.714l-48-96-105.143-16 75.429-75.429-18.286-105.143 93.714 50.286 93.714-50.286-18.286 105.143 75.429 75.429-105.143 16-43.429 96zM553.143 544l9.143-57.143-50.286 27.429-50.286-27.429 9.143 57.143-41.143 41.143 57.143 9.143 25.143 50.286 25.143-50.286 57.143-9.143-41.143-41.143zM694.857 196.571l61.714-260.571h-489.143l61.714 260.571 32-6.857-52.571-221.714h409.143l-52.571 221.714 29.714 6.857zM445.714 139.429l-16-118.857-32 4.571 16 118.857 32-4.571zM628.571 25.143l-32-4.571-16 118.857 32 4.571 16-118.857z" />
<glyph unicode="&#xe90e;" glyph-name="quality" d="M339.635 251.861l73.022-71.323-16.982-100.192c0-5.095 0-10.189 3.396-13.585s6.793-6.793 11.887-6.793c3.396 0 8.491 0 11.887 1.698l90.003 47.549 90.003-47.549c3.396-1.698 5.095-1.698 8.491-1.698 1.698 0 3.396 0 5.095 0 5.095 1.698 8.491 5.095 10.189 8.491s3.396 8.491 1.698 11.887l-16.982 100.192 73.022 71.323c3.396 3.396 5.095 8.491 5.095 13.585s-1.698 10.189-5.095 13.585c-3.396 3.396-6.793 5.095-10.189 5.095v0l-101.891 15.284-45.851 91.701c-1.698 5.095-6.793 8.491-10.189 10.189-5.095 1.698-10.189 1.698-13.585-1.698-3.396-1.698-6.793-5.095-8.491-8.491l-44.153-93.4-101.891-15.284c-10.189-1.698-16.982-10.189-15.284-20.378 1.698-3.396 3.396-6.793 6.793-10.189zM579.078 200.915v0c-5.095-5.095-6.793-10.189-5.095-16.982l11.887-73.022-66.229 33.964c-3.396 1.698-5.095 1.698-8.491 1.698s-5.095 0-8.491-1.698l-66.229-33.964 11.887 73.022c1.698 6.793-1.698 11.887-5.095 16.982l-52.643 52.643 73.022 10.189c6.793 1.698 11.887 5.095 13.585 10.189l32.265 66.229 32.265-66.229c3.396-5.095 8.491-8.491 13.585-10.189l73.022-10.189-49.247-52.643zM679.27 272.239v0 0 0zM769.274 324.882c-27.171 64.531-78.116 115.476-140.949 144.345 5.095 32.265-3.396 66.229-25.473 91.701l134.156 93.4c5.095 3.396 8.491 8.491 8.491 15.284v271.708c0 10.189-8.491 18.68-18.68 18.68h-427.94c-10.189 0-18.68-8.491-18.68-18.68v-271.708c0-6.793 3.396-11.887 8.491-15.284l134.156-93.4c-16.982-20.378-25.473-45.851-27.171-74.72 0-6.793 0-11.887 1.698-18.68-66.229-30.567-115.476-83.211-142.647-149.439-27.171-69.625-27.171-144.345 1.698-213.97 28.869-67.927 83.211-122.269 152.836-149.439 33.964-13.585 69.625-20.378 103.589-20.378 37.36 0 74.72 6.793 110.381 22.076 140.949 62.833 207.177 227.556 146.043 368.504zM512.849 457.34c134.156 0 242.839-108.683 242.839-242.839s-108.683-242.839-242.839-242.839c-134.156 0-242.839 108.683-242.839 242.839s108.683 242.839 242.839 242.839zM500.962 504.889c6.793-5.095 15.284-5.095 22.076 0l49.247 35.662c13.585-15.284 20.378-35.662 20.378-57.738-52.643 15.284-108.683 15.284-161.327 0 0 1.698 0 3.396 0 5.095 0 18.68 6.793 37.36 20.378 52.643l49.247-35.662zM317.559 678.103v244.537h390.58v-244.537l-195.29-135.854-195.29 135.854z" />
<glyph unicode="&#xe90f;" glyph-name="star-half" d="M1024 576h-384l-128 384-128-384h-384l317.44-256-122.88-384 317.44 256 317.44-256-128 384 322.56 256zM727.040 84.48l-215.040 174.080-215.040-174.080 81.92 250.88-230.4 189.44h276.48l87.040 271.36 92.16-271.36h276.48l-235.52-189.44 81.92-250.88z" />
<glyph unicode="&#xe910;" glyph-name="star-full" d="M512 960l-128-384h-384l317.44-256-122.88-384 317.44 256 317.44-256-128 384 317.44 256h-384l-122.88 384z" />
<glyph unicode="&#xe911;" glyph-name="star_mid" d="M1019.548 577.113h-382.887l-124.661 382.887-124.661-382.887h-382.887l316.104-253.774-129.113-387.339 325.009 258.226 325.009-258.226-129.113 391.791 307.2 249.322zM747.965 65.113l-231.513 186.991v565.426l93.496-284.939h284.939l-240.417-191.443 93.496-276.035z" />
<glyph unicode="&#xe912;" glyph-name="linkedin" d="M21.186 621.021h211.862v-685.021h-211.862v685.021zM769.766 635.145c-84.745 7.062-162.428-35.31-204.8-105.931v0 91.807h-204.8v-685.021h211.862v338.979c0 91.807 14.124 176.552 127.117 176.552 105.931 0 112.993-98.869 112.993-183.614v-331.917h211.862v374.29c0 183.614-42.372 324.855-254.234 324.855zM120.055 960c-63.559 0-120.055-56.497-120.055-127.117s56.497-120.055 127.117-120.055c70.621 0 120.055 56.497 120.055 127.117 0 63.559-56.497 120.055-127.117 120.055z" />
<glyph unicode="&#xe913;" glyph-name="zoom" d="M1010.347 65.707l-256 194.56c40.96 64.853 64.853 139.947 64.853 221.867 0 225.28-184.32 409.6-409.6 409.6s-409.6-184.32-409.6-409.6 184.32-409.6 409.6-409.6c119.467 0 225.28 51.2 300.373 133.12l259.413-194.56c6.827-3.413 13.653-6.827 20.48-6.827 10.24 0 20.48 3.413 27.307 13.653 10.24 13.653 6.827 37.547-6.827 47.787zM409.6 140.8c-187.733 0-341.333 153.6-341.333 341.333s153.6 341.333 341.333 341.333 341.333-153.6 341.333-341.333-153.6-341.333-341.333-341.333zM443.733 516.267h102.4v-68.267h-102.4v-102.4h-68.267v102.4h-102.4v68.267h102.4v102.4h68.267v-102.4z" />
<glyph unicode="&#xe914;" glyph-name="close" d="M614.4 448l409.6-409.6-102.4-102.4-409.6 409.6-409.6-409.6-102.4 102.4 409.6 409.6-409.6 409.6 102.4 102.4 409.6-409.6 409.6 409.6 102.4-102.4-409.6-409.6z" />
<glyph unicode="&#xe915;" glyph-name="previous" d="M345.6 32l-332.8 390.4c-6.4 6.4-6.4 12.8-6.4 19.2v0 0 0 0 0 0 0 0 0c0 6.4 0 12.8 6.4 19.2l332.8 390.4c12.8 19.2 32 19.2 44.8 6.4 19.2-12.8 19.2-32 6.4-44.8l-288-339.2h889.6c19.2 0 32-12.8 32-32s-12.8-32-32-32h-883.2l288-339.2c6.4-12.8 6.4-32-6.4-44.8-6.4-6.4-12.8-6.4-19.2-6.4s-19.2 6.4-32 12.8z" />
<glyph unicode="&#xe916;" glyph-name="next" d="M656 22.080c-6.4 0-12.8 0-19.2 6.4-12.8 12.8-12.8 32-6.4 44.8l288 339.2h-883.2c-19.2 0-32 12.8-32 32s12.8 32 32 32h889.6l-288 339.2c-12.8 12.8-12.8 32 6.4 44.8 12.8 12.8 32 12.8 44.8-6.4l332.8-390.4c6.4-6.4 6.4-12.8 6.4-19.2v0c0 0 0 0 0 0s0 0 0 0v0c0 0 0 0 0 0v0c0 0 0 0 0 0s0 0 0 0v0c0-6.4 0-12.8-6.4-19.2l-332.8-390.4c-12.8-6.4-25.6-12.8-32-12.8z" />
<glyph unicode="&#xe917;" glyph-name="bag" d="M705.384 669.26h-37.926v87.23c0 91.022-68.267 166.874-159.289 166.874-41.719 0-83.437-18.963-113.778-49.304s-45.511-72.059-45.511-117.57v-83.437h-37.926v83.437c0 53.096 18.963 102.4 56.889 144.119 37.926 37.926 87.23 60.681 140.326 60.681s106.193-22.756 140.326-60.681 56.889-91.022 56.889-144.119v-87.23zM845.71 642.712h-667.496l-64.474-709.215h800.237l-68.267 709.215zM212.347 604.786h599.23l56.889-633.363h-716.8l60.681 633.363zM310.955 536.519c0-11.378 7.585-18.963 18.963-18.963s18.963 7.585 18.963 18.963-7.585 18.963-18.963 18.963-18.963-11.378-18.963-18.963zM671.251 536.519c0-11.378 7.585-18.963 18.963-18.963s18.963 7.585 18.963 18.963-7.585 18.963-18.963 18.963-18.963-11.378-18.963-18.963z" />
<glyph unicode="&#xe918;" glyph-name="menu" d="M0 471.273h1024v-41.891h-1024v41.891zM0 75.636h1024v41.891h-1024v-41.891zM0 820.364v-46.545h1024v46.545h-1024z" />
<glyph unicode="&#xe919;" glyph-name="facebook1" d="M390.4-64v480h-128v172.8h128v147.2c0 115.2 76.8 224 249.6 224 38.4 0 83.2 0 121.6-6.4l-6.4-160c0 0-51.2 0-108.8 0-64 0-70.4-32-70.4-76.8v-128h185.6l-6.4-172.8h-179.2v-480h-185.6z" />
<glyph unicode="&#xe91a;" glyph-name="instagram1" d="M727.040 874.667c116.053 0 211.627-95.573 211.627-211.627v-430.080c0-116.053-95.573-211.627-211.627-211.627h-430.080c-116.053 0-211.627 95.573-211.627 211.627v430.080c0 116.053 95.573 211.627 211.627 211.627h430.080zM727.040 956.587h-430.080c-163.84 0-300.373-136.533-300.373-300.373v-430.080c0-163.84 136.533-300.373 300.373-300.373h430.080c163.84 0 300.373 136.533 300.373 300.373v436.907c-6.827 163.84-136.533 293.547-300.373 293.547zM781.653 642.56c-40.96 0-75.093 34.133-75.093 75.093s34.133 75.093 75.093 75.093c40.96 0 75.093-34.133 75.093-75.093 0-20.48-6.827-40.96-20.48-54.613s-34.133-20.48-54.613-20.48zM515.413 608.427c88.747 0 163.84-75.093 163.84-163.84s-75.093-163.84-163.84-163.84-163.84 75.093-163.84 163.84 68.267 163.84 163.84 163.84v0zM515.413 690.347c-136.533 0-245.76-109.227-245.76-245.76s109.227-245.76 245.76-245.76 245.76 109.227 245.76 245.76-116.053 245.76-245.76 245.76v0z" />
<glyph unicode="&#xe91b;" glyph-name="pinterest" d="M339.2 569.6c0 38.4 12.8 76.8 32 108.8 19.2 25.6 51.2 44.8 83.2 44.8 25.6 0 44.8-6.4 64-25.6 12.8-19.2 19.2-38.4 19.2-64 0-19.2 0-38.4-6.4-57.6-6.4-25.6-12.8-51.2-25.6-83.2-6.4-32-19.2-57.6-19.2-76.8-6.4-32 0-57.6 19.2-83.2s51.2-38.4 76.8-32c57.6 0 115.2 38.4 140.8 96 38.4 70.4 57.6 147.2 51.2 230.4 0 64-19.2 121.6-64 166.4-51.2 44.8-115.2 70.4-185.6 64-83.2 0-166.4-25.6-224-89.6-51.2-51.2-83.2-128-83.2-204.8 0-44.8 12.8-83.2 38.4-121.6 6.4-6.4 12.8-19.2 12.8-32-6.4-12.8-6.4-32-12.8-44.8 0-6.4-6.4-12.8-12.8-12.8s-12.8 0-19.2 0c-38.4 12.8-70.4 44.8-89.6 83.2-25.6 44.8-32 96-32 147.2 0 38.4 6.4 70.4 19.2 108.8 6.4 32 25.6 64 51.2 96s51.2 64 89.6 89.6c38.4 25.6 76.8 51.2 121.6 64s102.4 19.2 153.6 19.2c51.2 0 108.8-6.4 160-25.6 44.8-19.2 89.6-44.8 121.6-76.8s57.6-70.4 76.8-108.8c19.2-38.4 25.6-83.2 25.6-134.4 6.4-108.8-25.6-211.2-89.6-300.8-57.6-76.8-140.8-121.6-236.8-115.2-32 0-64 6.4-89.6 19.2s-44.8 32-57.6 51.2c-25.6-96-38.4-147.2-44.8-166.4-19.2-57.6-51.2-115.2-89.6-166.4h-38.4c-12.8 64-6.4 134.4 6.4 198.4l76.8 332.8c-12.8 32-19.2 64-19.2 102.4z" />
<glyph unicode="&#xe91c;" glyph-name="search" d="M397.241 253.793c-194.207 0-353.103 158.897-353.103 353.103s158.897 353.103 353.103 353.103 353.103-158.897 353.103-353.103-158.897-353.103-353.103-353.103zM397.241 915.862c-172.138 0-308.966-136.828-308.966-308.966s136.828-308.966 308.966-308.966 308.966 136.828 308.966 308.966-136.828 308.966-308.966 308.966zM979.862-33.103l-308.966 335.448-30.897-35.31 308.966-335.448 30.897 35.31z" />
<glyph unicode="&#xe91d;" glyph-name="twitter1" d="M1024 774.4c-12.8-19.2-25.6-38.4-38.4-57.6-19.2-25.6-44.8-44.8-70.4-57.6 0-6.4 0-12.8 0-19.2 0-83.2-12.8-160-44.8-236.8-44.8-128-134.4-236.8-249.6-307.2-121.6-64-256-89.6-390.4-70.4-83.2 6.4-160 38.4-230.4 89.6 108.8-12.8 224 19.2 313.6 89.6-89.6 0-172.8 64-198.4 147.2 12.8-6.4 32-6.4 44.8 0 19.2 0 32 6.4 51.2 6.4-64 19.2-115.2 57.6-147.2 108.8-12.8 32-19.2 70.4-19.2 108.8 25.6-19.2 64-25.6 96-25.6-51.2 32-83.2 83.2-96 147.2 0 44.8 6.4 96 25.6 134.4 70.4-76.8 153.6-140.8 243.2-185.6 57.6-25.6 128-38.4 192-38.4-6.4 57.6 0 115.2 25.6 160 32 44.8 76.8 83.2 134.4 96 70.4 19.2 147.2-6.4 198.4-57.6 51.2 6.4 96 25.6 134.4 51.2-12.8-51.2-51.2-96-96-121.6 38.4 6.4 83.2 19.2 121.6 38.4v0z" />
<glyph unicode="&#xe91e;" glyph-name="user" d="M504.743 420.842c-146.922 0-271.583 120.209-271.583 271.583s120.209 271.583 271.583 271.583 271.583-120.209 271.583-271.583-120.209-271.583-271.583-271.583zM504.743 915.033c-124.661 0-227.061-102.4-227.061-227.061s102.4-227.061 227.061-227.061 227.061 102.4 227.061 227.061-102.4 227.061-227.061 227.061zM958.865-64.445h-890.435c-13.357 0-22.261 8.904-22.261 22.261v151.374c0 155.826 204.8 280.487 467.478 280.487s467.478-124.661 467.478-280.487v-151.374c0-13.357-13.357-22.261-22.261-22.261zM90.691-19.923h845.913v129.113c0 129.113-191.443 235.965-422.957 235.965s-422.957-106.852-422.957-235.965v-129.113z" />
<glyph unicode="&#xe91f;" glyph-name="plus" d="M571.733 388.267v-401.067c0-25.6-34.133-51.2-59.733-51.2s-51.2 25.6-51.2 51.2v401.067h-401.067c-34.133 0-59.733 34.133-59.733 59.733s25.6 51.2 51.2 51.2h401.067v401.067c0 34.133 34.133 59.733 59.733 59.733s51.2-25.6 51.2-51.2v-401.067h401.067c34.133 0 59.733-34.133 59.733-59.733s-25.6-51.2-51.2-51.2l-401.067-8.533z" />
<glyph unicode="&#xe920;" glyph-name="check" d="M932.267 821.333l-236.8-238.933-326.4-326.4-279.467 279.467-89.6-89.6 320-320v-2.133l49.067-49.067 654.933 654.933z" />
<glyph unicode="&#xe921;" glyph-name="pause" d="M426.667-31.467v959.2c0 17.867-14.4 32.267-32.533 32.267h-190.933c-18.133 0-32.533-14.4-32.533-32.267v-959.2c0-17.867 14.4-32.533 32.533-32.533h190.933c18.133 0 32.533 14.4 32.533 32.533zM820.8 960h-190.933c-17.867 0-32.533-14.4-32.533-32.267v-959.2c0-17.867 14.4-32.533 32.533-32.533h190.933c17.867 0 32.533 14.4 32.533 32.533v959.2c0 17.867-14.4 32.267-32.533 32.267z" />
<glyph unicode="&#xe922;" glyph-name="youtube-new" d="M1003.52 693.76c-13.653 40.96-47.787 81.92-88.747 88.747-129.707 13.653-266.24 20.48-402.773 20.48s-266.24-6.827-402.773-20.48c-40.96-6.827-75.093-40.96-88.747-88.747-13.653-81.92-20.48-163.84-20.48-245.76s6.827-163.84 20.48-245.76c13.653-40.96 47.787-75.093 88.747-88.747 129.707-13.653 266.24-20.48 402.773-20.48s266.24 6.827 402.773 20.48c40.96 13.653 81.92 47.787 88.747 88.747 13.653 81.92 20.48 163.84 20.48 245.76s-6.827 163.84-20.48 245.76v0zM409.6 297.813v300.373l266.24-150.187-266.24-150.187z" />
<glyph unicode="&#xe923;" glyph-name="youtube1" d="M627.2 249.6v-121.6c0-25.6-6.4-38.4-19.2-38.4s-19.2 6.4-25.6 12.8v172.8c6.4 6.4 12.8 12.8 25.6 12.8s19.2-12.8 19.2-38.4v0zM819.2 249.6v-25.6h-51.2v25.6c0 25.6 6.4 38.4 25.6 38.4s25.6-12.8 25.6-38.4zM268.8 371.2h64v57.6h-179.2v-51.2h57.6v-326.4h57.6c0 0 0 320 0 320zM435.2 51.2h51.2v281.6h-51.2v-217.6c-12.8-19.2-19.2-25.6-32-25.6-6.4 0-12.8 6.4-12.8 12.8s0 12.8 0 19.2v211.2h-51.2v-224c0-12.8 0-25.6 6.4-44.8 6.4-12.8 19.2-25.6 32-19.2 25.6 0 44.8 12.8 57.6 32v-25.6zM678.4 134.4v115.2c0 19.2 0 38.4-6.4 57.6s-19.2 32-38.4 32c-19.2 0-38.4-12.8-51.2-32v121.6h-51.2v-377.6h51.2v25.6c12.8-19.2 32-32 51.2-32s38.4 12.8 38.4 32c6.4 19.2 6.4 38.4 6.4 57.6zM870.4 140.8v6.4h-51.2c0-12.8 0-25.6 0-32 0-12.8-12.8-19.2-25.6-19.2-19.2 0-25.6 12.8-25.6 38.4v51.2h102.4v57.6c0 25.6-6.4 44.8-12.8 64-25.6 32-76.8 38.4-108.8 12.8-6.4-6.4-6.4-6.4-12.8-12.8-12.8-19.2-19.2-44.8-19.2-64v-96c0-25.6 6.4-44.8 19.2-64s38.4-32 64-32c38.4 0 70.4 25.6 76.8 64-6.4 0-6.4 12.8-6.4 25.6v0zM524.8 659.2v121.6c0 25.6-6.4 38.4-25.6 38.4s-25.6-12.8-25.6-38.4v-121.6c0-25.6 6.4-38.4 25.6-38.4s25.6 12.8 25.6 38.4zM934.4 230.4c0-64 0-134.4-12.8-198.4-6.4-19.2-19.2-38.4-32-57.6-19.2-12.8-38.4-25.6-57.6-25.6-108.8-12.8-211.2-12.8-320-12.8s-211.2 0-320 12.8c-19.2 0-44.8 12.8-57.6 25.6-19.2 12.8-25.6 32-32 57.6-12.8 64-19.2 134.4-12.8 198.4 0 64 6.4 134.4 12.8 198.4 6.4 19.2 19.2 38.4 32 57.6 19.2 19.2 38.4 25.6 64 25.6 64 12.8 172.8 12.8 313.6 12.8s249.6-6.4 320-12.8c44.8-6.4 83.2-38.4 89.6-83.2 12.8-64 19.2-128 12.8-198.4v0zM364.8 960h57.6l-70.4-230.4v-153.6h-57.6v153.6c-6.4 44.8-19.2 83.2-32 121.6s-25.6 76.8-38.4 108.8h57.6l38.4-147.2 44.8 147.2zM576 768v-102.4c0-19.2 0-44.8-12.8-64-19.2-19.2-38.4-32-64-25.6-25.6 0-44.8 12.8-57.6 32-12.8 12.8-19.2 38.4-19.2 64v96c0 25.6 6.4 44.8 19.2 64s38.4 32 57.6 32c25.6 0 44.8-12.8 57.6-32 19.2-12.8 19.2-38.4 19.2-64v0zM768 864v-288h-51.2v32c-12.8-19.2-38.4-32-57.6-32-12.8 0-25.6 6.4-32 19.2s-6.4 25.6-6.4 44.8v224h51.2v-211.2c0-6.4 0-12.8 0-19.2s6.4-12.8 12.8-12.8c12.8 0 19.2 6.4 32 25.6v217.6h51.2z" />
<glyph unicode="&#xe924;" glyph-name="free-shipping" d="M126.42 635.523h126.42v160.132c0 16.856 12.642 33.712 33.712 33.712 0 0 0 0 0 0h703.737c16.856 0 33.712-12.642 33.712-33.712v-568.889c0-16.856-12.642-33.712-33.712-33.712h-33.712v568.889h-636.313v-370.831c-16.856 4.214-33.712 4.214-50.568 4.214h-12.642v181.202h-130.634c-33.712 0-63.21-29.498-63.21-63.21 0 0 0 0 0 0v-33.712h126.42v-63.21h-126.42v-160.132h75.852c33.712 71.638 117.992 105.35 193.844 75.852 33.712-12.642 58.996-42.14 75.852-75.852h219.128c21.070 54.782 75.852 88.494 134.848 88.494 75.852-4.214 134.848-67.424 134.848-143.276s-67.424-134.848-143.276-134.848c-71.638 4.214-126.42 54.782-134.848 126.42h-202.272c-8.428-80.066-84.28-134.848-160.132-122.206-63.21 8.428-113.778 58.996-122.206 122.206h-101.136c-16.856 0-33.712 12.642-33.712 29.498v286.551c0 71.638 58.996 130.634 126.42 126.42zM758.519 134.058c29.498 0 54.782 12.642 71.638 37.926 12.642 25.284 12.642 54.782 0 80.066-16.856 25.284-42.14 37.926-71.638 37.926s-54.782-12.642-71.638-37.926c-12.642-25.284-12.642-54.782 0-80.066 16.856-29.498 46.354-42.14 71.638-37.926zM273.909 134.058c42.14 4.214 71.638 37.926 71.638 80.066-4.214 42.14-37.926 71.638-80.066 71.638-37.926-4.214-71.638-33.712-71.638-75.852 0-46.354 37.926-80.066 80.066-75.852z" />
<glyph unicode="&#xe925;" glyph-name="minus" d="M59.733 507.733h913.067c25.6 0 51.2-34.133 51.2-59.733s-25.6-51.2-51.2-51.2h-913.067c-34.133-8.533-59.733 25.6-59.733 51.2 0 34.133 25.6 59.733 59.733 59.733z" />
<glyph unicode="&#xe926;" glyph-name="google-plus" d="M618.523 492.671c6.872-20.617 6.872-34.362 6.872-54.98 6.872-164.94-116.832-302.389-281.772-316.134-6.872 0-20.617 0-27.49 0-178.685 6.872-323.007 151.195-316.134 329.879 0 171.812 144.322 316.134 316.134 316.134 82.47 0 158.067-27.49 213.047-82.47l-82.47-89.342c-34.362 34.362-82.47 54.98-130.577 54.98-109.96 0-206.174-89.342-206.174-206.174 0-109.96 89.342-206.174 206.174-206.174 89.342-6.872 164.94 54.98 185.557 137.45h-185.557v116.832h302.389zM927.785 478.926v96.215h-96.215v-96.215h-96.215v-96.215h96.215v-96.215h96.215v96.215h96.215v96.215h-96.215z" />
<glyph unicode="&#xe927;" glyph-name="arrow-up" d="M1024 221.451c0-13.593-4.531-27.186-18.124-40.779-22.655-22.655-58.903-22.655-81.558 0l-412.319 416.85-412.319-407.788c-22.655-22.655-58.903-22.655-81.558 0s-22.655 58.903 0 81.558l453.097 444.035c22.655 22.655 58.903 22.655 81.558 0l453.097-457.628c13.593-9.062 18.124-22.655 18.124-36.248z" />
<glyph unicode="&#xe928;" glyph-name="arrow-down" d="M0 674.549c0 13.593 4.531 27.186 18.124 40.779 22.655 22.655 58.903 22.655 81.558 0l412.319-416.85 412.319 407.788c22.655 22.655 58.903 22.655 81.558 0s22.655-58.903 0-81.558l-453.097-444.035c-22.655-22.655-58.903-22.655-81.558 0l-453.097 457.628c-13.593 9.062-18.124 22.655-18.124 36.248z" />
<glyph unicode="&#xe929;" glyph-name="arrow-right" d="M285.451-64c-13.593 0-27.186 4.531-40.779 18.124-22.655 22.655-22.655 58.903 0 81.558l416.85 412.319-407.788 412.319c-22.655 22.655-22.655 58.903 0 81.558s58.903 22.655 81.558 0l444.035-453.097c22.655-22.655 22.655-58.903 0-81.558l-457.628-453.097c-9.062-13.593-22.655-18.124-36.248-18.124z" />
<glyph unicode="&#xe92a;" glyph-name="arrow-left" d="M738.549 960c13.593 0 27.186-4.531 40.779-18.124 22.655-22.655 22.655-58.903 0-81.558l-416.85-412.319 407.788-412.319c22.655-22.655 22.655-58.903 0-81.558s-58.903-22.655-81.558 0l-444.035 453.097c-22.655 22.655-22.655 58.903 0 81.558l457.628 453.097c9.062 13.593 22.655 18.124 36.248 18.124z" />
<glyph unicode="&#xe92b;" glyph-name="play" d="M909.867 509.6l-742.4 441.867c-9.067 5.333-18.4 8.533-29.067 8.533-29.067 0-52.8-24-52.8-53.333h-0.267v-917.333h0.267c0-29.333 23.733-53.333 52.8-53.333 10.933 0 20 3.733 29.867 9.067l741.6 441.333c17.6 14.667 28.8 36.8 28.8 61.6s-11.2 46.667-28.8 61.6z" />
<glyph unicode="&#xe92c;" glyph-name="quickview" d="M512 64c-320 0-499.2 349.867-507.733 366.933-4.267 12.8-4.267 25.6 0 38.4 8.533 12.8 187.733 362.667 507.733 362.667s499.2-349.867 507.733-366.933c4.267-12.8 4.267-25.6 0-38.4-8.533-12.8-187.733-362.667-507.733-362.667zM89.6 448c38.4-68.267 192-298.667 422.4-298.667s379.733 230.4 422.4 298.667c-38.4 68.267-192 298.667-422.4 298.667s-379.733-230.4-422.4-298.667zM512 277.333c-93.867 0-170.667 76.8-170.667 170.667s76.8 170.667 170.667 170.667c93.867 0 170.667-76.8 170.667-170.667s-76.8-170.667-170.667-170.667zM512 533.333c-46.933 0-85.333-38.4-85.333-85.333s38.4-85.333 85.333-85.333c46.933 0 85.333 38.4 85.333 85.333s-38.4 85.333-85.333 85.333z" />
<glyph unicode="&#xe92d;" glyph-name="email" d="M898.977 864.744h-773.953c0 0 0 0 0 0-65.488 0-119.070-53.581-125.023-119.070 0 0 0 0 0 0s0-5.953 0-5.953v-577.488c0-71.442 59.535-125.023 125.023-125.023h768c71.442 0 125.023 59.535 125.023 125.023v577.488c5.953 65.488-53.581 125.023-119.070 125.023zM125.023 805.209h768c29.767 0 59.535-23.814 65.488-53.581l-446.512-315.535-452.465 315.535c11.907 29.767 35.721 53.581 65.488 53.581zM898.977 90.791h-773.953c-35.721 0-65.488 29.767-65.488 65.488v523.907l434.605-303.628c5.953-5.953 11.907-5.953 17.86-5.953s11.907 0 17.86 5.953l434.605 303.628v-517.953c0-41.674-29.767-71.442-65.488-71.442z" />
<glyph unicode="&#xe92e;" glyph-name="location" d="M512-64c-111.304 0-378.435 382.887-378.435 645.565 0 209.252 169.183 378.435 378.435 378.435s378.435-169.183 378.435-378.435c0-262.678-267.13-645.565-378.435-645.565zM512 915.478c-182.539 0-333.913-151.374-333.913-333.913 0-271.583 267.13-601.043 333.913-601.043s333.913 329.461 333.913 601.043c0 182.539-151.374 333.913-333.913 333.913zM512 381.217c-111.304 0-200.348 89.043-200.348 200.348s89.043 200.348 200.348 200.348 200.348-89.043 200.348-200.348-89.043-200.348-200.348-200.348zM512 737.391c-84.591 0-155.826-71.235-155.826-155.826s71.235-155.826 155.826-155.826 155.826 71.235 155.826 155.826-71.235 155.826-155.826 155.826z" />
<glyph unicode="&#xe92f;" glyph-name="phone" d="M654.47 960h-284.939c-80.139 0-146.922-66.783-146.922-146.922v-725.704c0-84.591 66.783-151.374 146.922-151.374h280.487c80.139 0 146.922 66.783 146.922 146.922v730.157c4.452 80.139-62.33 146.922-142.47 146.922zM369.53 915.478h280.487c62.33 0 106.852-44.522 106.852-102.4v-31.165h-489.739v31.165c0 57.878 44.522 102.4 102.4 102.4zM756.87 737.391v-578.783h-489.739v578.783h489.739zM654.47-19.478h-284.939c-57.878 0-102.4 44.522-102.4 102.4v31.165h489.739v-31.165c0-57.878-44.522-102.4-102.4-102.4z" />
<glyph unicode="&#xe930;" glyph-name="time" d="M512-64c-279.814 0-512 232.186-512 512s232.186 512 512 512 512-232.186 512-512-232.186-512-512-512zM512 900.465c-250.047 0-452.465-202.419-452.465-452.465s202.419-452.465 452.465-452.465c250.047 0 452.465 202.419 452.465 452.465s-202.419 452.465-452.465 452.465zM768 209.86c5.953 11.907 0 29.767-11.907 41.674l-273.86 136.93v416.744c0 17.86-11.907 29.767-29.767 29.767s-29.767-17.86-29.767-35.721v-434.605c0-11.907 5.953-23.814 17.86-23.814l291.721-142.884c5.953 0 5.953-5.953 11.907-5.953s17.86 5.953 23.814 17.86z" />
<glyph unicode="&#xe931;" glyph-name="envelope" d="M1024 713.253v-536.675c0-43.181-37.012-80.193-80.193-80.193h-863.614c-43.181 0-80.193 37.012-80.193 80.193v536.675c0 0 0 0 0 6.169 0 0 6.169 0 6.169 0l265.253-271.422c0 0 0-6.169 0-6.169l-185.060-197.398c0 0 0 0 0 0-12.337-12.337-12.337-30.843 0-43.181s30.843-12.337 43.181 0l185.060 197.398c0 0 6.169 0 6.169 0l49.349-49.349c37.012-37.012 92.53-61.687 141.88-61.687 55.518 0 104.867 18.506 141.88 61.687l43.181 43.181c0 0 6.169 0 6.169 0l185.060-197.398c12.337-12.337 30.843-12.337 43.181 0 0 0 0 0 0 0 12.337 12.337 12.337 30.843 0 43.181l-185.060 197.398c0 0 0 0 0 0s0 6.169 0 6.169l265.253 271.422c0 6.169 6.169 6.169 12.337 0-6.169 6.169 0 0 0 0zM512 355.47c37.012 0 67.855 12.337 98.699 43.181l382.458 394.795c-12.337 12.337-30.843 18.506-49.349 18.506h-863.614c-18.506-6.169-37.012-12.337-49.349-24.675l382.458-394.795c24.675-24.675 61.687-37.012 98.699-37.012z" />
<glyph unicode="&#xe932;" glyph-name="close_lite" d="M549.101 445.527l474.899-474.899-34.628-34.628-474.899 474.899-474.899-474.899-39.575 34.628 474.899 474.899-474.899 479.845 34.628 34.628 474.899-474.899 479.845 474.899 34.628-34.628-474.899-479.845z" />
</font>
</defs>
</svg>
